osu file format v14

[General]
AudioFilename: Linkin Park - Breaking The Habit.mp3
AudioLeadIn: 1500
PreviewTime: 47527
Countdown: 0
SampleSet: Normal
StackLeniency: 0.7
Mode: 0
LetterboxInBreaks: 0
WidescreenStoryboard: 0

[Editor]
Bookmarks: 27583
DistanceSpacing: 1.2
BeatDivisor: 2
GridSize: 4
TimelineZoom: 1.6

[Metadata]
Title:Breaking The Habit
TitleUnicode:Breaking The Habit
Artist:Linkin Park
ArtistUnicode:Linkin Park
Creator:AlexaBM
Version:Light
Source:
Tags:Meteora alternative lp Chester Bennington
BeatmapID:419193
BeatmapSetID:173468

[Difficulty]
HPDrainRate:2
CircleSize:4
OverallDifficulty:2
ApproachRate:3
SliderMultiplier:0.7
SliderTickRate:1

[Events]
//Background and Video events
0,0,"bg1.jpg",0,0
Video,-687,"BadHabit.avi",0,0
//Break Periods
2,72170,75328
//Storyboard Layer 0 (Background)
//Storyboard Layer 1 (Fail)
//Storyboard Layer 2 (Pass)
//Storyboard Layer 3 (Foreground)
//Storyboard Sound Samples
//Background Colour Transformations
3,100,163,162,255

[TimingPoints]
9589,299.910026991902,4,1,1,60,1,0
47977,-100,4,1,1,75,0,1
71970,-100,4,1,1,65,0,0
105560,-100,4,1,1,75,0,1
129403,-100,4,1,1,75,0,0
129553,-100,4,1,1,75,0,1
129702,-100,4,1,1,75,0,0
148747,-100,4,1,1,75,0,1
177538,-100,4,1,1,75,0,0

[Colours]
Combo1 : 176,151,185
Combo2 : 163,182,205
Combo3 : 193,194,141
Combo4 : 155,202,175

[HitObjects]
452,280,9589,6,0,B|425:236|369:222|325:244,1,140,4|0,0:0|0:0,0:0:0:0:
256,280,10488,1,8,0:0:0:0:
184,320,10788,2,0,B|137:336|87:317|62:279,1,140,,,0:0:0:0:
17,205,11688,1,8,0:0:0:0:
60,132,11988,6,0,B|78:95|118:78|155:88,2,105,2|8|8,0:0|0:0|0:0,0:0:0:0:
96,208,13187,1,0,0:0:0:0:
198,340,13787,2,0,L|269:315,1,70,0|8,0:0|0:0,0:0:0:0:
344,284,14387,6,0,B|401:262|428:197|404:137|358:109,1,210,6|8,0:0|0:0,0:0:0:0:
280,100,15587,2,0,B|225:121|198:181|215:240|256:271,1,210,2|8,0:0|0:0,0:0:0:0:
344,284,16786,6,0,B|400:284|400:284|448:308,2,105,2|10|8,0:0|0:0|0:0,0:0:0:0:
258,271,17986,2,0,B|206:231|206:231|150:231|150:231|120:188|62:195,1,210,2|8,0:0|0:0,0:0:0:0:
81,277,19186,5,6,0:0:0:0:
226,360,19785,2,0,B|276:379|330:353|348:305,2,140,,,0:0:0:0:
168,300,21285,1,8,0:0:0:0:
124,228,21585,6,0,B|102:179|129:122|180:108,1,140,2|0,0:0|0:0,0:0:0:0:
256,120,22485,1,8,0:0:0:0:
340,112,22785,2,0,B|386:131|407:184|387:228,2,140,0|0|2,0:0|0:0|0:0,0:0:0:0:
256,120,24284,1,8,0:0:0:0:
199,182,24584,6,0,B|185:209|188:239|203:262,1,70,0|8,0:0|0:0,0:0:0:0:
271,290,25184,2,0,B|252:326|212:342|176:334,2,105,0|0|8,0:0|0:0|0:0,0:0:0:0:
308,216,26383,6,0,B|315:188|335:166|360:156,1,70,2|8,0:0|0:0,0:0:0:0:
412,104,26983,2,0,B|404:76|384:55|360:44,1,70,0|8,0:0|0:0,0:0:0:0:
288,24,27583,2,0,B|224:15|195:59|195:59|162:101|94:96,1,210,0|0,0:0|0:0,0:0:0:0:
24,60,28783,1,4,0:0:0:0:
68,220,29383,6,0,B|74:253|52:286|52:286|28:324|38:355,1,140,,,0:0:0:0:
120,338,30282,1,8,0:0:0:0:
201,352,30582,2,0,B|211:324|187:286|187:286|165:253|171:220,1,140,0|2,0:0|0:0,0:0:0:0:
338,209,31782,5,0,0:0:0:0:
421,219,32082,1,8,0:0:0:0:
480,160,32382,2,0,B|479:107|459:60|427:23,2,140,0|0|2,0:0|0:0|0:0,0:0:0:0:
452,324,34181,5,0,0:0:0:0:
368,308,34481,1,8,0:0:0:0:
284,292,34781,2,0,B|246:287|210:303|188:332,2,105,0|0|8,0:0|0:0|0:0,0:0:0:0:
339,228,35981,6,0,B|356:207|360:180|352:156,1,70,2|8,0:0|0:0,0:0:0:0:
328,84,36580,2,0,B|314:48|276:28|237:36|213:59,1,140,,,0:0:0:0:
148,112,37480,1,8,0:0:0:0:
96,176,37780,2,0,B|78:194|76:221|89:241,1,70,2|2,0:0|0:0,0:0:0:0:
174,240,38380,6,0,B|176:280|151:316|114:330|80:325,2,140,6|0|0,0:0|0:0|0:0,0:0:0:0:
260,96,40179,1,0,0:0:0:0:
338,240,40779,2,0,B|336:280|360:316|397:330|431:325,1,140,2|0,0:0|0:0,0:0:0:0:
472,164,41979,1,0,0:0:0:0:
336,64,42579,1,0,0:0:0:0:
176,116,43178,6,0,B|127:138|127:138|60:132,2,105,2|0|8,0:0|0:0|0:0,0:0:0:0:
225,47,44378,2,0,B|272:85|255:147|255:147|240:197|267:243,1,210,0|8,0:0|0:0,0:0:0:0:
308,316,45578,6,0,L|256:372,2,70,2|8|0,0:0|0:0|0:0,0:0:0:0:
352,244,46477,1,8,0:0:0:0:
324,164,46777,2,0,B|282:134|228:133|187:157,1,140,0|2,0:0|0:0,0:0:0:0:
24,136,47977,6,0,B|24:82|24:82|44:26,2,105,6|0|8,0:0|0:0|0:0,0:0:0:0:
32,216,49177,2,0,B|56:264|117:279|160:248,1,140,2|0,0:0|0:0,0:0:0:0:
224,212,50076,1,8,0:0:0:0:
280,152,50376,5,2,0:0:0:0:
424,236,50976,1,0,0:0:0:0:
276,320,51576,2,0,B|226:339|172:317|148:273,1,140,2|0,0:0|0:0,0:0:0:0:
120,200,52476,1,8,0:0:0:0:
112,116,52776,5,2,0:0:0:0:
272,68,53375,1,0,0:0:0:0:
240,232,53975,2,0,B|212:296|212:296|144:332,2,140,2|0|2,0:0|0:0|0:0,0:0:0:0:
268,152,55475,1,8,0:0:0:0:
308,80,55775,6,0,B|353:49|415:64|440:112,1,140,0|2,0:0|0:0,0:0:0:0:
496,248,56974,1,2,0:0:0:0:
428,300,57274,1,8,0:0:0:0:
356,340,57574,6,0,B|313:371|255:361|224:321,1,140,6|0,0:0|0:0,0:0:0:0:
164,272,58474,1,8,0:0:0:0:
100,216,58774,2,0,B|79:196|50:191|24:200,2,70,2|8|0,0:0|0:0|0:0,0:0:0:0:
260,260,59973,5,2,0:0:0:0:
336,224,60273,1,8,0:0:0:0:
392,160,60573,2,0,B|429:194|429:252|393:286,2,140,0|2|0,0:0|0:0|0:0,0:0:0:0:
308,144,62073,1,8,0:0:0:0:
224,160,62373,6,0,B|156:203|67:186|16:121|12:51,2,280,6|2|2,0:0|0:0|0:0,0:0:0:0:
368,74,65372,2,0,L|384:144,1,70,0|8,0:0|0:0,0:0:0:0:
396,224,65972,2,0,B|404:265|384:304|348:324|313:324,1,140,2|0,0:0|0:0,0:0:0:0:
236,316,66871,1,8,0:0:0:0:
256,192,67171,12,2,71970,0:0:0:0:
72,184,76768,6,0,B|102:230|163:242|207:212,1,140,6|0,0:0|0:0,0:0:0:0:
308,96,77968,2,0,B|280:50|220:39|177:68,1,140,2|0,0:0|0:0,0:0:0:0:
124,120,78868,1,8,0:0:0:0:
68,184,79168,6,0,B|31:150|31:92|66:57,2,140,2|0|2,0:0|0:0|0:0,0:0:0:0:
236,168,80967,1,0,0:0:0:0:
320,156,81267,1,8,0:0:0:0:
380,216,81567,6,0,B|426:238|443:293|421:336,1,140,2|0,0:0|0:0,0:0:0:0:
344,296,82467,1,8,0:0:0:0:
288,360,82767,2,0,B|236:360|236:360|180:340,2,105,2|0|8,0:0|0:0|0:0,0:0:0:0:
344,296,83966,6,0,B|344:244|344:244|316:188,2,105,2|0|8,0:0|0:0|0:0,0:0:0:0:
260,284,85166,2,0,B|180:276|160:200|160:200|88:156|24:196,1,280,0|4,0:0|0:0,0:0:0:0:
132,324,86965,5,0,0:0:0:0:
295,361,87565,1,2,0:0:0:0:
333,198,88165,1,2,0:0:0:0:
169,160,88765,2,0,B|118:152|71:184|56:231,1,140,2|0,0:0|0:0,0:0:0:0:
56,312,89664,5,8,0:0:0:0:
132,352,89964,2,0,B|183:360|230:328|245:281,2,140,2|0|2,0:0|0:0|0:0,0:0:0:0:
20,224,91764,1,0,0:0:0:0:
140,104,92364,6,0,B|192:92|192:92|252:96,2,105,2|0|8,0:0|0:0|0:0,0:0:0:0:
96,176,93563,2,0,B|52:148|44:88|76:48,2,140,2|0|2,0:0|0:0|0:0,0:0:0:0:
180,196,95063,1,8,0:0:0:0:
260,220,95363,2,0,B|279:236|291:257|295:279,1,70,2|2,0:0|0:0,0:0:0:0:
263,357,95963,6,0,B|302:374|346:358|367:324,2,105,6|0|8,0:0|0:0|0:0,0:0:0:0:
197,305,97162,2,0,B|146:292|95:315|70:356,1,140,2|0,0:0|0:0,0:0:0:0:
24,188,98362,6,0,B|35:135|78:98|127:92,2,140,2|0|2,0:0|0:0|0:0,0:0:0:0:
20,272,99861,1,8,0:0:0:0:
156,372,100461,1,8,0:0:0:0:
208,304,100761,6,0,B|240:278|279:272|279:272|410:273,1,210,2|8,0:0|0:0,0:0:0:0:
472,335,101961,2,0,B|503:304|509:258|488:220|456:201,1,140,2|0,0:0|0:0,0:0:0:0:
304,180,103160,6,0,B|264:217|203:212|168:173,2,140,2|0|0,0:0|0:0|0:0,0:0:0:0:
368,124,104660,1,8,0:0:0:0:
420,60,104960,1,8,0:0:0:0:
480,216,105560,6,0,L|500:328,2,105,6|0|8,0:0|0:0|0:0,0:0:0:0:
416,164,106759,2,0,B|370:144|318:163|294:204,1,140,2|0,0:0|0:0,0:0:0:0:
212,352,107959,5,2,0:0:0:0:
150,294,108259,1,8,0:0:0:0:
88,236,108559,1,0,0:0:0:0:
144,80,109159,2,0,B|167:31|223:11|271:28,1,140,2|0,0:0|0:0,0:0:0:0:
341,47,110058,1,8,0:0:0:0:
412,92,110358,5,2,0:0:0:0:
304,220,110958,1,0,0:0:0:0:
192,340,111558,2,0,B|148:371|88:357|60:313,2,140,2|0|2,0:0|0:0|0:0,0:0:0:0:
256,284,113057,5,8,0:0:0:0:
320,340,113357,2,0,B|365:371|427:356|452:308,1,140,0|2,0:0|0:0,0:0:0:0:
500,164,114557,1,2,0:0:0:0:
368,64,115157,6,0,B|296:52|296:52|224:88,1,140,6|0,0:0|0:0,0:0:0:0:
176,140,116057,1,8,0:0:0:0:
108,192,116356,2,0,L|16:208,2,70,2|8|0,0:0|0:0|0:0,0:0:0:0:
276,180,117556,5,2,0:0:0:0:
264,96,117856,1,8,0:0:0:0:
188,64,118156,2,0,B|120:52|120:52|40:72,2,140,0|2|0,0:0|0:0|0:0,0:0:0:0:
264,96,119655,1,8,0:0:0:0:
312,164,119955,6,0,B|385:127|443:179|443:179|432:96|512:60,2,280,6|2|2,0:0|0:0|0:0,0:0:0:0:
164,248,122954,1,0,0:0:0:0:
295,356,123554,2,0,B|345:350|378:303|369:255,1,140,2|0,0:0|0:0,0:0:0:0:
348,176,124454,1,8,0:0:0:0:
256,192,124754,12,6,129553,0:0:0:0:
376,248,130752,6,0,B|410:269|451:269|484:252,2,105,2|0|8,0:0|0:0|0:0,0:0:0:0:
308,196,131952,2,0,B|232:164|172:198|172:198|108:240|36:196,2,280,2|2|6,0:0|0:0|0:0,0:0:0:0:
458,270,134951,5,0,0:0:0:0:
499,196,135251,1,8,0:0:0:0:
486,112,135551,2,0,B|463:64|412:39|363:44,1,140,2|0,0:0|0:0,0:0:0:0:
292,66,136450,1,8,0:0:0:0:
213,96,136750,6,0,B|163:97|120:69|99:28,2,140,2|0|2,0:0|0:0|0:0,0:0:0:0:
296,112,138250,1,8,0:0:0:0:
380,128,138550,2,0,B|430:127|473:155|494:196,1,140,2|6,0:0|0:0,0:0:0:0:
392,332,139749,5,0,0:0:0:0:
311,356,140049,1,8,0:0:0:0:
226,356,140349,2,0,B|152:355|152:355|92:319,2,140,2|0|2,0:0|0:0|0:0,0:0:0:0:
336,232,142149,1,0,0:0:0:0:
412,80,142749,2,0,B|451:67|491:83|512:115,2,105,2|2|8,0:0|0:0|0:0,0:0:0:0:
440,160,143948,6,0,B|444:241|379:310|291:311|235:266,1,280,6|2,0:0|0:0,0:0:0:0:
148,132,145748,1,0,0:0:0:0:
184,56,146048,1,8,0:0:0:0:
264,32,146347,6,0,B|282:104|368:108|368:108|329:175|376:240|376:240|296:262|278:332|278:332,1,420,2|0,0:0|0:0,0:0:0:0:
200,360,148447,1,8,0:0:0:0:
150,291,148747,6,0,L|98:161,1,140,6|0,0:0|0:0,0:0:0:0:
134,87,149646,1,8,0:0:0:0:
210,55,149946,2,0,L|266:191,1,140,2|0,0:0|0:0,0:0:0:0:
326,239,150846,1,8,0:0:0:0:
398,283,151146,6,0,B|419:248|412:205|386:178,2,105,0|0|8,0:0|0:0|0:0,0:0:0:0:
326,239,152346,1,2,0:0:0:0:
166,187,152945,1,0,0:0:0:0:
198,111,153245,1,8,0:0:0:0:
274,75,153545,6,0,B|326:59|326:59|378:71,2,105,2|0|8,0:0|0:0|0:0,0:0:0:0:
250,155,154745,2,0,B|198:171|198:171|146:159,2,105,0|0|8,0:0|0:0|0:0,0:0:0:0:
334,135,155945,6,0,B|402:163|402:163|442:235,1,140,2|0,0:0|0:0,0:0:0:0:
474,295,156844,1,8,0:0:0:0:
422,363,157144,2,0,B|388:387|342:382|313:352|306:316,1,140,2|2,0:0|0:0,0:0:0:0:
294,243,158044,1,8,0:0:0:0:
266,163,158344,6,0,B|251:127|215:106|176:108|148:127,1,140,6|0,0:0|0:0,0:0:0:0:
82,179,159244,1,8,0:0:0:0:
50,255,159544,2,0,L|42:339,2,70,2|8|0,0:0|0:0|0:0,0:0:0:0:
80,92,160743,6,0,B|136:52|136:52|220:36,1,140,2|0,0:0|0:0,0:0:0:0:
292,44,161643,1,8,0:0:0:0:
368,80,161943,2,0,L|420:212,1,140,2|0,0:0|0:0,0:0:0:0:
448,288,162843,1,8,0:0:0:0:
388,347,163142,6,0,B|328:387|256:345|256:345|186:387|124:347,2,280,6|2|2,0:0|0:0|0:0,0:0:0:0:
479,205,166142,1,0,0:0:0:0:
358,88,166741,2,0,L|284:71,1,70,2|8,0:0|0:0,0:0:0:0:
207,54,167341,1,0,0:0:0:0:
124,35,167641,1,8,0:0:0:0:
48,68,167941,6,4,B|11:87|-2:133|17:172|50:187,1,140,6|0,0:0|0:0,0:0:0:0:
116,228,168841,1,8,0:0:0:0:
192,268,169141,2,4,B|229:287|242:333|223:372|190:387,2,140,2|0|2,0:0|0:0|0:0,0:0:0:0:
76,148,170940,5,0,0:0:0:0:
156,116,171240,1,8,0:0:0:0:
232,84,171540,2,0,L|312:60,1,70,2|8,0:0|0:0,0:0:0:0:
466,65,172440,1,8,0:0:0:0:
510,141,172740,5,6,0:0:0:0:
450,297,173339,2,0,B|435:321|411:335|386:337,1,70,0|8,0:0|0:0,0:0:0:0:
310,333,173939,2,0,B|254:293|254:293|227:222,1,140,2|0,0:0|0:0,0:0:0:0:
256,192,175139,12,6,177538,0:0:0:0:
